+ ShareSpark.net »  :::: Dubbed Zone (Dubbed English in Hindi) » English Movies Dubbed in Hindi » Animation Movies
|- Moana [2016] Blu-Ray 1080p x264 Dual Audio [Eng DTS +Hindi DD5.1]-Hon3y - 7.62 GB [With GD]


100% Recharge Offer
  • Moana [2016] Blu-Ray 1080p x264 Dual Audio [Eng DTS +Hindi DD5.1]-Hon3y - 7.62 GB [With GD] 3 2
Currently:  

Moana [2016] Blu-Ray 1080p x264 Dual Audio [Eng DTS +Hindi DD5.1]-Hon3y - 7.62 GB [With GD]

0 Members and 1 Guest are viewing this topic.

March 22, 2017, 09:16:15 PM
  • Global Moderator
  • Legend Member
  • *****
  • Topic Author
  • Thank You: 11262
  • Reputation: 2261
  • Activity:
    100%
  • Country: in
  • Posts: 5485
  • Topics: 4528
  • Join Date: Jan 2014
  • ıllıllı ѕмoĸιng ιѕ good ғor нealтн ıllıllı :)


Moana [2016] Blu-Ray 1080p x264 Dual Audio [Eng DTS +Hindi DD5.1]-Hon3y - 7.62 GB

Quote
Format                                   : Matroska
Format version                           : Version 4 / Version 2
File size                                : 7.62 GiB
Duration                                 : 1 h 47 min
Overall bit rate                         : 10.2 Mb/s

Video
ID                                       : 1
Format                                   : AVC
Format/Info                              : Advanced Video Codec
Format profile                           : [email protected]
Format settings, CABAC                   : Yes
Format settings, ReFrames                : 5 frames
Codec ID                                 : V_MPEG4/ISO/AVC
Duration                                 : 1 h 47 min
Bit rate                                 : 8 000 kb/s
Width                                    : 1 920 pixels
Height                                   : 800 pixels
Display aspect ratio                     : 2.40:1
Frame rate mode                          : Constant
Frame rate                               : 23.976 (24000/1001) FPS
Color space                              : YUV
Chroma subsampling                       : 4:2:0
Bit depth                                : 8 bits
Scan type                                : Progressive
Bits/(Pixel*Frame)                       : 0.217
Stream size                              : 5.99 GiB (79%)
Title                                    : [email protected]
Writing library                          : x264 core 142 r2431 ac76440
Language                                 : English
Default                                  : Yes
Forced                                   : No

Hindi Audio credits : DD5.1 BD audio ..Thanks Snowdon

Audio #1
ID                                       : 2
Format                                   : AC-3
Format/Info                              : Audio Coding 3
Mode extension                           : CM (complete main)
Format settings, Endianness              : Big
Codec ID                                 : A_AC3
Duration                                 : 1 h 47 min
Bit rate mode                            : Constant
Bit rate                                 : 640 kb/s
Channel(s)                               : 6 channels
Channel positions                        : Front: L C R, Side: L R, LFE
Sampling rate                            : 48.0 kHz
Frame rate                               : 31.250 FPS (1536 spf)
Bit depth                                : 16 bits
Compression mode                         : Lossy
Stream size                              : 491 MiB (6%)
Title                                    : [email protected] DD5.1 640 kbps BD Hindi
Language                                 : Hindi
Default                                  : Yes
Forced                                   : No

Audio #2
ID                                       : 3
Format                                   : DTS
Format/Info                              : Digital Theater Systems
Mode                                     : 16
Format settings, Endianness              : Big
Codec ID                                 : A_DTS
Duration                                 : 1 h 47 min
Bit rate mode                            : Constant
Bit rate                                 : 1 509 kb/s
Channel(s)                               : 6 channels
Channel positions                        : Front: L C R, Side: L R, LFE
Sampling rate                            : 48.0 kHz
Frame rate                               : 93.750 FPS (512 spf)
Bit depth                                : 24 bits
Compression mode                         : Lossy
Stream size                              : 1.13 GiB (15%)
Title                                    : [email protected]
Language                                 : English
Default                                  : No
Forced                                   : No

Text #1
ID                                       : 4
Format                                   : PGS
Muxing mode                              : zlib
Codec ID                                 : S_HDMV/PGS
Codec ID/Info                            : Picture based subtitle format used on BDs/HD-DVDs
Duration                                 : 1 h 45 min
Bit rate                                 : 9 682 b/s
Count of elements                        : 2692
Stream size                              : 7.31 MiB (0%)
Title                                    : [email protected]
Language                                 : English
Default                                  : Yes
Forced                                   : No

Text #2
ID                                       : 5
Format                                   : PGS
Muxing mode                              : zlib
Codec ID                                 : S_HDMV/PGS
Codec ID/Info                            : Picture based subtitle format used on BDs/HD-DVDs
Duration                                 : 1 h 45 min
Bit rate                                 : 8 855 b/s
Count of elements                        : 2468
Stream size                              : 6.69 MiB (0%)
Title                                    : [email protected]
Language                                 : English
Default                                  : No
Forced                                   : No

Menu
00:00:00.000                             : en:00:00:00.000
00:07:15.685                             : en:00:07:15.685
00:11:59.802                             : en:00:11:59.802
00:16:13.764                             : en:00:16:13.764
00:21:29.578                             : en:00:21:29.578
00:28:02.806                             : en:00:28:02.806
00:32:11.346                             : en:00:32:11.346
00:35:16.280                             : en:00:35:16.280
00:41:36.869                             : en:00:41:36.869
00:45:04.867                             : en:00:45:04.867
00:49:10.322                             : en:00:49:10.322
00:53:21.030                             : en:00:53:21.030
00:57:33.324                             : en:00:57:33.324
01:05:45.023                             : en:01:05:45.023
01:10:46.074                             : en:01:10:46.074
01:12:52.117                             : en:01:12:52.117
01:15:41.953                             : en:01:15:41.953
01:23:17.074                             : en:01:23:17.074
01:29:50.926                             : en:01:29:50.926
01:36:13.725                             : en:01:36:13.725










Quote





Don't walk as you are king, walk as you don't care who the king is....!!
Never argue with an idiot. They drag you down to their level and then beat you with experience?

Share this topic on FacebookShare this topic on GoogleShare this topic on MySpaceShare this topic on TwitterShare this topic on Yahoo

« Last Edit: March 22, 2017, 09:33:23 PM by Rάήνίјάч1234 »



Don't walk as you are king, walk as you don't care who the king is....!!

Thanks given by:


March 22, 2017, 09:22:56 PM
Reply #1
  • Semi Newbie
  • **
  • Thank You: 0
  • Reputation: 0
  • Activity:
    0%
  • Country: tr
  • Posts: 17
  • Topics: 0
  • Join Date: Dec 2016
  • ShareSpark Member

March 22, 2017, 09:30:01 PM
Reply #2
  • Global Moderator
  • Legend Member
  • *****
  • Topic Author
  • Thank You: 11262
  • Reputation: 2261
  • Activity:
    100%
  • Country: in
  • Posts: 5485
  • Topics: 4528
  • Join Date: Jan 2014
  • ıllıllı ѕмoĸιng ιѕ good ғor нealтн ıllıllı :)

Don't walk as you are king, walk as you don't care who the king is....!!

March 22, 2017, 11:19:04 PM
Reply #3
  • Semi Newbie
  • **
  • Thank You: 0
  • Reputation: 0
  • Activity:
    0%
  • Country: tr
  • Posts: 17
  • Topics: 0
  • Join Date: Dec 2016
  • ShareSpark Member

March 22, 2017, 11:51:32 PM
Reply #4
  • Royal Member
  • ****
  • Thank You: 1
  • Reputation: 1
  • Activity:
    3.4%
  • Posts: 852
  • Topics: 2
  • Join Date: Apr 2012
  • ShareSpark Member

June 18, 2017, 05:38:07 PM
Reply #5
  • Hot Member
  • ***
  • Thank You: 25
  • Reputation: 8
  • Activity:
    6.4%
  • Country: bd
  • Posts: 621
  • Topics: 12
  • Join Date: Jun 2017
  • ShareSpark Member

October 23, 2018, 07:04:01 PM
Reply #6
  • Senior Member
  • ***
  • Thank You: 4
  • Reputation: 1
  • Activity:
    16.6%
  • Country: pk
  • Posts: 218
  • Topics: 7
  • Join Date: Mar 2013
  • ShareSpark Member

Tags:
 

Related Topics





Back to top
Nest 5.14.2.1 | Samsung Galaxy S8 or Galaxy S8+ Plus Case w/Holster Clip Fits Otterbox Defender | Sale temps à lhôtel El Royale