+ ShareSpark.net »  :::: Dubbed Zone (Dubbed English in Hindi) » English Movies Dubbed in Hindi » Animation Movies
|- Zootopia (2016) 720p BluRay x264 Dual Audio [Hindi - English] DD2.0 - Esub ~ Ranvijay


Mastercard 10% Off

Zootopia (2016) 720p BluRay x264 Dual Audio [Hindi - English] DD2.0 - Esub ~ Ranvijay

0 Members and 1 Guest are viewing this topic.

May 20, 2018, 02:48:39 PM
  • Global Moderator
  • Legend Member
  • *****
  • Topic Author
  • Thank You: 11262
  • Reputation: 2261
  • Activity:
    100%
  • Country: in
  • Posts: 5485
  • Topics: 4528
  • Join Date: Jan 2014
  • ıllıllı ѕмoĸιng ιѕ good ғor нealтн ıllıllı :)




Zootopia (2016) 720p BluRay x264 Dual Audio [Hindi - English] DD2.0 - Esub ~ Ranvijay

Thanks To Hammer For Hindi Audio

Buy RDP Online


Quote
Format                                   : Matroska
Format version                           : Version 4 / Version 2
File size                                : 1 001 MiB
Duration                                 : 1 h 49 min
Overall bit rate                         : 1 283 kb/s
Movie name                               : Zootopia (2016) 720p BluRay x264 Dual Audio [Hindi - English] DD2.0 - Esub ~ Ranvijay

Video
ID                                       : 1
Format                                   : AVC
Duration                                 : 1 h 48 min
Bit rate                                 : 1 072 kb/s
Width                                    : 1 280 pixels
Height                                   : 536 pixels
Display aspect ratio                     : 2.40:1
Frame rate mode                          : Constant
Frame rate                               : 23.976 (24000/1001) FPS
Stream size                              : 832 MiB (83%)
Title                                    : ~Ranvijay~
Language                                 : English
Default                                  : Yes
Forced                                   : No

Audio #1
ID                                       : 2
Format                                   : E-AC-3
Format/Info                              : Enhanced Audio Coding 3
Codec ID                                 : A_EAC3
Duration                                 : 1 h 48 min
Bit rate mode                            : Constant
Bit rate                                 : 128 kb/s
Channel(s)                               : 2 channels
Channel positions                        : Front: L R
Sampling rate                            : 48.0 kHz
Frame rate                               : 187.500 FPS (256 SPF)
Compression mode                         : Lossy
Delay relative to video                  : 2 s 100 ms
Stream size                              : 99.8 MiB (10%)
Title                                    : ~Ranvijay~
Language                                 : Hindi
Service kind                             : Complete Main
Default                                  : Yes
Forced                                   : No

Audio #2
ID                                       : 3
Format                                   : AAC
Format/Info                              : Advanced Audio Codec
Format profile                           : LC
Codec ID                                 : A_AAC-2
Duration                                 : 1 h 48 min
Bit rate                                 : 85.8 kb/s
Channel(s)                               : 2 channels
Channel positions                        : Front: L R
Sampling rate                            : 48.0 kHz
Frame rate                               : 46.875 FPS (1024 SPF)
Compression mode                         : Lossy
Delay relative to video                  : 9 ms
Stream size                              : 66.6 MiB (7%)
Title                                    : ~Ranvijay~
Language                                 : English
Default                                  : No
Forced                                   : No

Text
ID                                       : 4
Format                                   : UTF-8
Codec ID                                 : S_TEXT/UTF8
Codec ID/Info                            : UTF-8 Plain Text
Duration                                 : 1 h 38 min
Bit rate                                 : 71 b/s
Count of elements                        : 1698
Stream size                              : 52.0 KiB (0%)
Title                                    : ~Ranvijay~
Language                                 : English
Default                                  : No
Forced                                   : No

Menu
00:00:00.000                             : en:00:00:00.000
00:00:59.559                             : en:00:00:59.559
00:05:50.100                             : en:00:05:50.100
00:10:05.563                             : en:00:10:05.563
00:14:31.537                             : en:00:14:31.537
00:18:24.019                             : en:00:18:24.019
00:26:03.353                             : en:00:26:03.353
00:30:57.439                             : en:00:30:57.439
00:37:07.100                             : en:00:37:07.100
00:40:43.441                             : en:00:40:43.441
00:44:31.752                             : en:00:44:31.752
00:51:40.430                             : en:00:51:40.430
00:55:40.378                             : en:00:55:40.378
01:00:48.269                             : en:01:00:48.269
01:03:37.855                             : en:01:03:37.855
01:09:19.822                             : en:01:09:19.822
01:13:39.165                             : en:01:13:39.165
01:17:07.372                             : en:01:17:07.372
01:21:52.366                             : en:01:21:52.366
01:28:19.169                             : en:01:28:19.169
01:32:43.433                             : en:01:32:43.433
01:36:12.141                             : en:01:36:12.141











:download:

Quote

File Leeched & Uploaded From




Don't walk as you are king, walk as you don't care who the king is....!!
Never argue with an idiot. They drag you down to their level and then beat you with experience?

Share this topic on FacebookShare this topic on GoogleShare this topic on MySpaceShare this topic on TwitterShare this topic on Yahoo




Don't walk as you are king, walk as you don't care who the king is....!!

Thanks given by:


May 22, 2018, 09:38:04 PM
Reply #1
  • Hot Member
  • ***
  • Thank You: 0
  • Reputation: 3
  • Activity:
    2%
  • Posts: 582
  • Topics: 0
  • Join Date: Sep 2012
  • ShareSpark Member

May 27, 2018, 02:43:39 PM
Reply #2
  • Semi Newbie
  • **
  • Thank You: 0
  • Reputation: 0
  • Activity:
    0%
  • Country: in
  • Posts: 6
  • Topics: 0
  • Join Date: May 2018
  • ShareSpark Member

September 09, 2018, 06:36:56 AM
Reply #3
  • Elite Forces
  • ****
  • Thank You: 244
  • Reputation: 105
  • Activity:
    8.6%
  • Country: sa
  • Posts: 1174
  • Topics: 130
  • Join Date: Jan 2017
  • ShareSpark Member

Tags:
 

Related Topics





Back to top
Shotaro Morikubo | Thám Tử Lừng Danh Conan chap 897 | Adobe Premiere Pro CC 2019 13.0.0 (x64) + Crack [CracksNow]