+ ShareSpark.net »  :::: Dubbed Zone (Dubbed English in Hindi) » English Movies Dubbed in Hindi » Animation Movies
|- The Spongebob Squarepants Movie 2004 x264 x264 720p Esub BluRay Dual Audio English Hindi GOPISAHI


Amazon Pantry Offer

The Spongebob Squarepants Movie 2004 x264 x264 720p Esub BluRay Dual Audio English Hindi GOPISAHI

0 Members and 1 Guest are viewing this topic.

October 03, 2018, 04:22:44 PM
  • ***************
  • Team SSX
  • Legend Member
  • ***
  • Topic Author
  • Thank You: 1835
  • Reputation: 553
  • Activity:
    100%
  • Country: pk
  • Posts: 1935
  • Topics: 1219
  • Join Date: Mar 2015
  • =$ Success Never Ends $=
The Spongebob Squarepants Movie 2004 x264 x264 720p Esub BluRay Dual Audio English Hindi GOPISAHI








Format : Matroska

Format version : Version 4 / Version 2

File size : 620 MiB

Duration : 1 h 27 min

Overall bit rate : 994 kb/s

Movie name : GOPISAHI


Video

Format : AVC

Format/Info : Advanced Video Codec

Codec ID : V_MPEG4/ISO/AVC

Duration : 1 h 27 min

Bit rate : 799 kb/s

Width : 1 280 pixels

Height : 720 pixels

Display aspect ratio : 16:9

Frame rate mode : Constant

Frame rate : 23.976 (24000/1001) FPS

Color space : YUV

Chroma subsampling : 4:2:0

Bit depth : 8 bits

Scan type : Progressive

Bits/(Pixel*Frame) : 0.036

Stream size : 498 MiB (80%)

Title : GOPISAHI

Writing library : x264 core 155 r2901 7d0ff22


Audio #1

Format : AAC

Duration : 1 h 27 min

Bit rate : 96.0 kb/s

Channel(s) : 2 channels

Channel positions : Front: L R

Sampling rate : 48.0 kHz

Frame rate : 46.875 FPS (1024 SPF)

Compression mode : Lossy

Delay relative to video : -21 ms

Stream size : 59.7 MiB (10%)

Title : GOPISAHI

Language : Hindi


Audio #2

Format : AAC

Format/Info : Advanced Audio Codec

Duration : 1 h 27 min

Bit rate : 96.0 kb/s

Channel(s) : 2 channels

Channel positions : Front: L R

Sampling rate : 48.0 kHz

Frame rate : 46.875 FPS (1024 SPF)

Compression mode : Lossy

Delay relative to video : 19 ms

Stream size : 59.7 MiB (10%)

Title : GOPISAHI

Language : English


Text

Language : English





 :ss:










 :download:

























Share this topic on FacebookShare this topic on GoogleShare this topic on MySpaceShare this topic on TwitterShare this topic on Yahoo



Thanks given by:


Tags:
 

Related Topics





Back to top
Gala Besson | View Deal on eBay | 早上起床必听的铃声.mp3