+ ShareSpark.net »  :::: Dubbed Zone (Dubbed English in Hindi) » English Movies Dubbed in Hindi » Animation Movies
|- The Fox And The Hound 1981 x264 720p Esub BluRay Dual Audio English Hindi GOPISAHI


10% SBI and 10% Discount

The Fox And The Hound 1981 x264 720p Esub BluRay Dual Audio English Hindi GOPISAHI

0 Members and 1 Guest are viewing this topic.

October 04, 2018, 01:22:22 PM
  • ***************
  • Team SSX
  • Legend Member
  • ***
  • Topic Author
  • Thank You: 1817
  • Reputation: 552
  • Activity:
    100%
  • Country: pk
  • Posts: 1902
  • Topics: 1189
  • Join Date: Mar 2015
  • =$ Success Never Ends $=
The Fox And The Hound 1981 x264 720p Esub BluRay Dual Audio English Hindi GOPISAHI







Format                         : Matroska

Format version                 : Version 4 / Version 2

File size                      : 589 MiB

Duration                       : 1 h 22 min

Overall bit rate               : 994 kb/s

Movie name                     : The Fox And The Hound 1981 GOPISAHI


Video

Format                         : AVC

Format/Info                    : Advanced Video Codec

Codec ID                       : V_MPEG4/ISO/AVC

Duration                       : 1 h 22 min

Bit rate                       : 799 kb/s

Width                          : 1 274 pixels

Height                         : 766 pixels

Display aspect ratio           : 5:3

Frame rate mode                : Constant

Frame rate                     : 23.976 (24000/1001) FPS

Color space                    : YUV

Chroma subsampling             : 4:2:0

Bit depth                      : 8 bits

Scan type                      : Progressive

Bits/(Pixel*Frame)             : 0.034

Stream size                    : 474 MiB (80%)

Title                          : GOPISAHI

Writing library                : x264 core 155 r2901 7d0ff22


Audio #1

Format                         : AAC

Duration                       : 1 h 22 min

Bit rate                       : 96.0 kb/s

Channel(s)                     : 2 channels

Channel positions              : Front: L R

Sampling rate                  : 48.0 kHz

Frame rate                     : 46.875 FPS (1024 SPF)

Compression mode               : Lossy

Delay relative to video        : -21 ms

Stream size                    : 56.9 MiB (10%)

Title                          : GOPISAHI

Language                       : Hindi


Audio #2

Format                         : AAC

Duration                       : 1 h 22 min

Bit rate                       : 96.0 kb/s

Channel(s)                     : 2 channels

Channel positions              : Front: L R

Sampling rate                  : 48.0 kHz

Frame rate                     : 46.875 FPS (1024 SPF)

Compression mode               : Lossy

Delay relative to video        : -21 ms

Stream size                    : 56.8 MiB (10%)

Title                          : GOPISAHI

Language                       : English





 :ss:











 :download:


























Share this topic on FacebookShare this topic on GoogleShare this topic on MySpaceShare this topic on TwitterShare this topic on Yahoo



Thanks given by:


October 05, 2018, 05:50:39 PM
Reply #1
  • Royal Member
  • ****
  • Thank You: 1
  • Reputation: 1
  • Activity:
    3.4%
  • Posts: 852
  • Topics: 2
  • Join Date: Apr 2012
  • ShareSpark Member
Thanks for Sharing ....................................

Tags:
 

Related Topics





Back to top
Who Do You Think You Are? – Season 10 | Hellfest | Chicago PD HDTV