+ ShareSpark.net »  :::: Dubbed Zone (Dubbed English in Hindi) » English Movies Dubbed in Hindi » Animation Movies
|- The Boss Baby 2017 720p BluRay x264 Dual Audio [Hindi DD 5.1 - English 2.0] ESub [MW]


10% SBI and 10% Discount

The Boss Baby 2017 720p BluRay x264 Dual Audio [Hindi DD 5.1 - English 2.0] ESub [MW]

0 Members and 1 Guest are viewing this topic.

October 27, 2018, 12:28:22 PM
  • ***************
  • Team SSX
  • Legend Member
  • ***
  • Topic Author
  • Thank You: 1835
  • Reputation: 553
  • Activity:
    100%
  • Country: pk
  • Posts: 1935
  • Topics: 1219
  • Join Date: Mar 2015
  • =$ Success Never Ends $=
The Boss Baby 2017 720p BluRay x264 Dual Audio [Hindi DD 5.1 - English 2.0] ESub [MW]









General
Format : Matroska
Format version : Version 4 / Version 2
File size : 1 020 MiB
Duration : 1 h 37 min
Overall bit rate : 1 463 kb/s

Video
ID : 1
Format : AVC
Format/Info : Advanced Video Codec
Format profile : [email protected]
Format settings : CABAC / 4 Ref Frames
Format settings, CABAC : Yes
Format settings, RefFrames : 4 frames
Codec ID : V_MPEG4/ISO/AVC
Duration : 1 h 37 min
Bit rate : 900 kb/s
Width : 1 280 pixels
Height : 544 pixels
Display aspect ratio : 2.35:1
Frame rate mode : Constant
Frame rate : 23.976 FPS
Color space : YUV
Chroma subsampling : 4:2:0
Bit depth : 8 bits
Scan type : Progressive
Bits/(Pixel*Frame) : 0.054
Stream size : 628 MiB (62%)
Writing library : x264 core 148
Default : Yes
Forced : No

Audio #1
ID : 2
Format : AC-3
Format/Info : Audio Coding 3
Codec ID : A_AC3
Duration : 1 h 37 min
Bit rate mode : Constant
Bit rate : 448 kb/s
Channel(s) : 6 channels
Channel positions : Front: L C R, Side: L R, LFE
Sampling rate : 48.0 kHz
Frame rate : 31.250 FPS (1536 SPF)
Bit depth : 16 bits
Compression mode : Lossy
Stream size : 312 MiB (31%)
Language : Hindi
Service kind : Complete Main
Default : Yes
Forced : Yes

Audio #2
ID : 3
Format : AAC
Format/Info : Advanced Audio Codec
Format profile : LC
Codec ID : A_AAC-2
Duration : 1 h 37 min
Bit rate : 112 kb/s
Channel(s) : 2 channels
Channel positions : Front: L R
Sampling rate : 48.0 kHz
Frame rate : 46.875 FPS (1024 SPF)
Compression mode : Lossy
Stream size : 78.2 MiB (8%)
Language : English
Default : No
Forced : No

Text
ID : 4
Format : UTF-8
Codec ID : S_TEXT/UTF8
Codec ID/Info : UTF-8 Plain Text
Duration : 1 h 36 min
Bit rate : 57 b/s
Count of elements : 1568
Stream size : 40.8 KiB (0%)
Default : Yes
Forced : No




 :ss:













 :download:



























Share this topic on FacebookShare this topic on GoogleShare this topic on MySpaceShare this topic on TwitterShare this topic on Yahoo



Thanks given by:


Tags:
 

Related Topics





Back to top
第08集 | Watch Now | The Good Cop زیرنویس فصل 1