+ ShareSpark.net »  :::: Dubbed Zone (Dubbed English in Hindi) » English Movies Dubbed in Hindi » Animation Movies
|- Jimmy Neutron Boy Genius 2001 x264 720p Esub BluRay Dual Audio English Hindi GOPISAHI


Electroncs Sale

Jimmy Neutron Boy Genius 2001 x264 720p Esub BluRay Dual Audio English Hindi GOPISAHI

0 Members and 1 Guest are viewing this topic.

November 11, 2018, 02:00:23 PM
  • ***************
  • Team SSX
  • Legend Member
  • ***
  • Topic Author
  • Thank You: 1817
  • Reputation: 552
  • Activity:
    100%
  • Country: pk
  • Posts: 1902
  • Topics: 1189
  • Join Date: Mar 2015
  • =$ Success Never Ends $=
Jimmy Neutron Boy Genius 2001 x264 720p Esub BluRay Dual Audio English Hindi GOPISAHI










Format : Matroska

Format version : Version 4 / Version 2

File size : 764 MiB

Duration : 1 h 22 min

Overall bit rate : 1 291 kb/s

Movie name : Jimmy Neutron Boy Genius 2001 GOPISAHI


Video

Format : AVC

Format/Info : Advanced Video Codec

Codec ID : V_MPEG4/ISO/AVC

Duration : 1 h 22 min

Bit rate : 1 097 kb/s

Width : 1 280 pixels

Height : 720 pixels

Display aspect ratio : 16:9

Frame rate mode : Constant

Frame rate : 23.976 (24000/1001) FPS

Color space : YUV

Chroma subsampling : 4:2:0

Bit depth : 8 bits

Scan type : Progressive

Bits/(Pixel*Frame) : 0.050

Stream size : 649 MiB (85%)

Title : GOPISAHI

Writing library : x264 core 148 r2721 72d53ab


Audio #1

Format : AAC

Duration : 1 h 22 min

Bit rate : 96.0 kb/s

Channel(s) : 2 channels

Channel positions : Front: L R

Sampling rate : 48.0 kHz

Frame rate : 46.875 FPS (1024 SPF)

Compression mode : Lossy

Stream size : 56.7 MiB (7%)

Title : GOPISAHI

Language : Hindi


Audio #2

Format : AAC

Duration : 1 h 22 min

Bit rate : 96.0 kb/s

Channel(s) : 2 channels

Channel positions : Front: L R

Sampling rate : 48.0 kHz

Frame rate : 46.875 FPS (1024 SPF)

Compression mode : Lossy

Delay relative to video : 30 ms

Stream size : 56.6 MiB (7%)

Title : GOPISAHI

Language : English


Text

Language : English





 :ss:














 :download:


























Share this topic on FacebookShare this topic on GoogleShare this topic on MySpaceShare this topic on TwitterShare this topic on Yahoo



Thanks given by:


Tags:
 

Related Topics





Back to top
Personalised Engraved Geniune Parker Vector MATTE BLACK GOLD CLIP Ballpoint pen | Black Clover (TV) Episode 46 English Sub | Trío. La búsqueda del Santuario Sagrado (2017) Full Micro HD Gratis