+ ShareSpark.net »  :::: Dubbed Zone (Dubbed English in Hindi) » English Movies Dubbed in Hindi » Animation Movies
|- Incredibles 2 (2018) 720p BluRay x264 Dual Audio [Hindi DD5.1 - English DD5.1] - ESUBS ~ Ranvijay


Mastercard 10% Off

Incredibles 2 (2018) 720p BluRay x264 Dual Audio [Hindi DD5.1 - English DD5.1] - ESUBS ~ Ranvijay

0 Members and 1 Guest are viewing this topic.

November 13, 2018, 04:03:27 PM
  • Global Moderator
  • Legend Member
  • *****
  • Topic Author
  • Thank You: 11335
  • Reputation: 2274
  • Activity:
    100%
  • Country: in
  • Posts: 5493
  • Topics: 4531
  • Join Date: Jan 2014
  • ıllıllı ѕмoĸιng ιѕ good ғor нealтн ıllıllı :)






Incredibles 2 (2018) 720p BluRay x264 Dual Audio [Hindi DD5.1 - English DD5.1] - ESUBS ~ Ranvijay

Thanks To Mr Rajput For Hindi Audio

Buy RDP Online




Quote

Format                                   : Matroska
Format version                           : Version 4 / Version 2
File size                                : 1.50 GiB
Duration                                 : 1 h 57 min
Overall bit rate                         : 1 825 kb/s
Movie name                               : Incredibles 2 (2018) 720p BluRay x264 Dual Audio [Hindi DD5.1 - English DD5.1] - ESUBS ~ Ranvijay

Video
ID                                       : 1
Format                                   : AVC
Format/Info                              : Advanced Video Codec
Duration                                 : 1 h 57 min
Bit rate                                 : 1 175 kb/s
Width                                    : 1 280 pixels
Height                                   : 536 pixels
Display aspect ratio                     : 2.40:1
Frame rate mode                          : Constant
Frame rate                               : 23.976 (24000/1001) FPS
Color space                              : YUV
Chroma subsampling                       : 4:2:0
Bit depth                                : 8 bits
Scan type                                : Progressive
Bits/(Pixel*Frame)                       : 0.071
Stream size                              : 990 MiB (64%)
Title                                    : ~Ranvijay~

Audio #1
ID                                       : 2
Format                                   : AC-3
Format/Info                              : Audio Coding 3
Codec ID                                 : A_AC3
Duration                                 : 1 h 57 min
Bit rate mode                            : Constant
Bit rate                                 : 448 kb/s
Channel(s)                               : 6 channels
Channel positions                        : Front: L C R, Side: L R, LFE
Sampling rate                            : 48.0 kHz
Frame rate                               : 31.250 FPS (1536 SPF)
Bit depth                                : 16 bits
Compression mode                         : Lossy
Stream size                              : 378 MiB (25%)
Title                                    : ~Ranvijay~
Language                                 : Hindi
Service kind                             : Complete Main
Default                                  : Yes
Forced                                   : Yes

Audio #2
ID                                       : 3
Format                                   : AC-3
Format/Info                              : Audio Coding 3
Codec ID                                 : A_AC3
Duration                                 : 1 h 57 min
Bit rate mode                            : Constant
Bit rate                                 : 192 kb/s
Channel(s)                               : 6 channels
Channel positions                        : Front: L C R, Side: L R, LFE
Sampling rate                            : 48.0 kHz
Frame rate                               : 31.250 FPS (1536 SPF)
Bit depth                                : 16 bits
Compression mode                         : Lossy
Stream size                              : 162 MiB (11%)
Title                                    : ~Ranvijay~
Language                                 : English
Service kind                             : Complete Main
Default                                  : No
Forced                                   : No

Text #1
ID                                       : 4
Format                                   : VobSub
Muxing mode                              : zlib
Codec ID                                 : S_VOBSUB
Codec ID/Info                            : Picture based subtitle format used on DVDs
Duration                                 : 1 h 54 min
Bit rate                                 : 13.3 kb/s
Count of elements                        : 2309
Stream size                              : 11.0 MiB (1%)
Title                                    : ~Ranvijay~
Language                                 : English
Default                                  : Yes
Forced                                   : Yes

Text #2
ID                                       : 5
Format                                   : UTF-8
Codec ID                                 : S_TEXT/UTF8
Codec ID/Info                            : UTF-8 Plain Text
Duration                                 : 1 h 46 min
Bit rate                                 : 75 b/s
Count of elements                        : 1991
Stream size                              : 59.4 KiB (0%)
Title                                    : ~Ranvijay~
Language                                 : English
Default                                  : No
Forced                                   : No

Menu
00:00:00.000                             : :00:00:00.000
00:03:22.327                             : :00:03:22.327
00:08:53.616                             : :00:08:53.616
00:09:36.785                             : :00:09:36.784
00:13:38.276                             : :00:13:38.276
00:15:44.735                             : :00:15:44.735
00:21:19.904                             : :00:21:19.737
00:23:28.365                             : :00:23:28.282
00:27:08.794                             : :00:27:08.794
00:28:59.571                             : :00:28:59.571
00:35:10.942                             : :00:35:10.900
00:39:07.846                             : :00:39:07.845
00:42:43.895                             : :00:42:43.894
00:43:42.411                             : :00:43:42.411
00:47:35.353                             : :00:47:35.352
00:48:53.889                             : :00:48:53.889
00:54:15.586                             : :00:54:15.585
00:56:16.039                             : :00:56:16.039
01:00:58.697                             : :01:00:58.696
01:02:01.885                             : :01:02:01.884
01:06:55.512                             : :01:06:55.511
01:09:18.237                             : :01:09:18.237
01:11:28.201                             : :01:11:28.200
01:12:37.687                             : :01:12:37.686
01:14:39.266                             : :01:14:39.266
01:18:01.051                             : :01:18:00.968
01:20:32.536                             : :01:20:32.536
01:25:01.930                             : :01:25:01.930
01:27:59.441                             : :01:27:59.440
01:31:53.925                             : :01:31:53.925
01:33:26.434                             : :01:33:26.434
01:36:25.238                             : :01:36:25.237
01:37:45.234                             : :01:37:45.192
01:43:56.897                             : :01:43:56.897
01:45:35.913                             : :01:45:35.912
01:47:30.903                             : :01:47:30.902











:download:

Quote












SAMPLE

File Leeched & Uploaded From




Don't walk as you are king, walk as you don't care who the king is....!!
Never argue with an idiot. They drag you down to their level and then beat you with experience?

Share this topic on FacebookShare this topic on GoogleShare this topic on MySpaceShare this topic on TwitterShare this topic on Yahoo




Don't walk as you are king, walk as you don't care who the king is....!!

Thanks given by:


November 13, 2018, 08:24:09 PM
Reply #1
  • Semi Newbie
  • **
  • Thank You: 0
  • Reputation: 0
  • Activity:
    1%
  • Country: in
  • Posts: 12
  • Topics: 0
  • Join Date: Jun 2016
  • ShareSpark Member

Tags:
 

Related Topics





Back to top
6 Les Aventures de Spirou | Twelve Dead Men | HD Notorious C.h.o. (2002)