+ ShareSpark.net »  :::: Bollywood Zone » Indian PC Videos
|- Yeh Dillagi (1994) Hindi 1080p Untouched Webhd AVC {Music Video} ~ Special26


Mastercard 10% Off

Yeh Dillagi (1994) Hindi 1080p Untouched Webhd AVC {Music Video} ~ Special26

0 Members and 2 Guests are viewing this topic.

November 19, 2018, 10:47:54 AM
  • Team SSX
  • Legend Member
  • ***
  • Topic Author
  • Thank You: 4775
  • Reputation: 1024
  • Activity:
    100%
  • Country: np
  • Posts: 1557
  • Topics: 1353
  • Join Date: Jul 2016
  • Love Forever !!
Yeh Dillagi (1994) Hindi 1080p Untouched Webhd AVC {Music Video} ~ Special26




 :info:
Format                         : Matroska
Format version                 : Version 4
File size                      : 2.49 GB


Video
ID                             : 1
Format                         : AVC
Format/Info                    : Advanced Video Codec
Format profile                 : [email protected]
Format settings                : CABAC / 2 Ref Frames
Format settings, CABAC         : Yes
Format settings, ReFrames      : 2 frames
Codec ID                       : V_MPEG4/ISO/AVC
Bit rate mode                  : Constant
Bit rate                       : 10.4 Mb/s
Width                          : 1 920 pixels
Height                         : 1 080 pixels
Display aspect ratio           : 16:9
Frame rate mode                : Constant
Frame rate                     : 29.970 (30000/1001) FPS
Color space                    : YUV
Chroma subsampling             : 4:2:0
Bit depth                      : 8 bits
Scan type                      : Progressive
Bits/(Pixel*Frame)             : 0.167
Stream size                    : 323 MiB (98%)
Default                        : Yes
Forced                         : No


Audio
ID                             : 2
Format                         : AAC LC
Format/Info                    : Advanced Audio Codec
Codec ID                       : A_AAC-2
Bit rate                       : 186 kb/s
Channel(s)                     : 2 channels
Channel layout                 : L R
Sampling rate                  : 48.0 kHz
Frame rate                     : 46.875 FPS (1024 SPF)
Compression mode               : Lossy
Delay relative to video        : 9 ms
Stream size                    : 5.79 MiB (2%)
Default                        : Yes
Forced                         : No



 :ss:










 :download:


Share this topic on FacebookShare this topic on GoogleShare this topic on MySpaceShare this topic on TwitterShare this topic on Yahoo

« Last Edit: November 24, 2018, 04:20:32 PM by Special26 »


Thanks given by:


November 24, 2018, 03:25:01 PM
Reply #1
  • Senior Member
  • ***
  • Thank You: 0
  • Reputation: 2
  • Activity:
    3.6%
  • Country: in
  • Posts: 214
  • Topics: 0
  • Join Date: Oct 2014
  • ShareSpark Member

November 29, 2018, 06:14:33 AM
Reply #2
  • Semi Newbie
  • **
  • Thank You: 0
  • Reputation: 1
  • Activity:
    1.6%
  • Country: in
  • Posts: 48
  • Topics: 0
  • Join Date: Oct 2016
  • ShareSpark Member
Not able to download via Google drive link....Please provide other download links.

Tags:
 

Related Topics

  Subject / Started by Replies Last post
5 Replies
535 Views
Last post December 02, 2018, 08:41:18 AM
by Special26
1 Replies
307 Views
Last post December 02, 2018, 07:15:13 AM
by gprem54
1 Replies
302 Views
Last post December 03, 2018, 07:01:42 PM
by gprem54
0 Replies
303 Views
Last post December 04, 2018, 11:17:35 AM
by Special26
1 Replies
209 Views
Last post December 14, 2018, 01:19:24 PM
by prathamk




Back to top
New york unite speciale | Artes creativas | 3×04 Melodia Mortale