+ ShareSpark.net »  :::: Dubbed Zone (Dubbed English in Hindi) » English Movies Dubbed in Hindi » Animation Movies
|- The Rugrats Movie 1998 x264 720p Esub Dual Audio Telugu Tamil Hindi English [Shahzaib Shah]


10% SBI and 10% Discount

The Rugrats Movie 1998 x264 720p Esub Dual Audio Telugu Tamil Hindi English [Shahzaib Shah]

0 Members and 1 Guest are viewing this topic.

November 27, 2018, 03:21:27 PM
  • ***************
  • Team SSX
  • Legend Member
  • ***
  • Topic Author
  • Thank You: 1835
  • Reputation: 553
  • Activity:
    100%
  • Country: pk
  • Posts: 1935
  • Topics: 1219
  • Join Date: Mar 2015
  • =$ Success Never Ends $=
The Rugrats Movie 1998 x264 720p Esub Dual Audio Telugu Tamil Hindi English [Shahzaib Shah]











Format : Matroska
Format version : Version 4 / Version 2
File size : 623 MiB
Duration : 1 h 20 min
Overall bit rate : 1 088 kb/s
Movie name : The Rugrats Movie 1998 [Shahzaib Shah]

Video
Format : AVC
Format/Info : Advanced Video Codec
Codec ID : V_MPEG4/ISO/AVC
Duration : 1 h 20 min
Bit rate : 699 kb/s
Width : 1 278 pixels
Height : 720 pixels
Display aspect ratio : 16:9
Frame rate mode : Constant
Frame rate : 23.976 (24000/1001) FPS
Color space : YUV
Chroma subsampling : 4:2:0
Bit depth : 8 bits
Scan type : Progressive
Bits/(Pixel*Frame) : 0.032
Stream size : 400 MiB (64%)
Title : [Shahzaib Shah]
Writing library : x264 core 155 r2901 7d0ff22

Audio #1
Format : AAC
Duration : 1 h 20 min
Bit rate : 96.0 kb/s
Channel(s) : 2 channels
Channel positions : Front: L R
Sampling rate : 48.0 kHz
Frame rate : 46.875 FPS (1024 SPF)
Compression mode : Lossy
Delay relative to video : -21 ms
Stream size : 55.0 MiB (9%)
Title : [Shahzaib Shah]
Language : Hindi

Audio #2
Format : AAC
Duration : 1 h 20 min
Bit rate : 96.0 kb/s
Channel(s) : 2 channels
Channel positions : Front: L R
Sampling rate : 48.0 kHz
Frame rate : 46.875 FPS (1024 SPF)
Compression mode : Lossy
Delay relative to video : 9 ms
Stream size : 55.1 MiB (9%)
Title : [Shahzaib Shah]
Language : English

Audio #3
Format : AAC
Duration : 1 h 20 min
Bit rate : 96.0 kb/s
Channel(s) : 2 channels
Channel positions : Front: L R
Sampling rate : 48.0 kHz
Frame rate : 46.875 FPS (1024 SPF)
Compression mode : Lossy
Delay relative to video : -21 ms
Stream size : 55.0 MiB (9%)
Title : [Shahzaib Shah]
Language : Telugu

Audio #4
Format : AAC
Duration : 1 h 20 min
Bit rate : 96.0 kb/s
Channel(s) : 2 channels
Channel positions : Front: L R
Sampling rate : 48.0 kHz
Frame rate : 46.875 FPS (1024 SPF)
Compression mode : Lossy
Delay relative to video : -21 ms
Stream size : 55.1 MiB (9%)
Title : [Shahzaib Shah]
Language : Tamil

Text
Language : English













 :download:




























Share this topic on FacebookShare this topic on GoogleShare this topic on MySpaceShare this topic on TwitterShare this topic on Yahoo



Thanks given by:


Tags:
 

Related Topics





Back to top
Hỏa Hồng Niên Đại Hắc Cốt Đường chap 10215-05-2018 | Harper's Bazaar (0) | Télescope et jumelles