+ ShareSpark.net »  :::: Dubbed Zone (Dubbed English in Hindi) » English Movies Dubbed in Hindi » Dubbed Hindi Audio Files
|- Mission Impossible Fallout (2018) Org BD 5.1 AAC Starting from 50MB [veryVery HighQuality]


10% SBI and 10% Discount

Mission Impossible Fallout (2018) Org BD 5.1 AAC Starting from 50MB [veryVery HighQuality]

0 Members and 1 Guest are viewing this topic.

December 01, 2018, 10:23:03 AM
  • Semi Newbie
  • **
  • Topic Author
  • Thank You: 17
  • Reputation: 2
  • Activity:
    2.6%
  • Country: ru
  • Posts: 13
  • Topics: 6
  • Join Date: Jun 2018
  • ShareSpark Member
Mission Impossible Fallout (2018) Org Starting from 50MB [very Very High Quality AAC audio In all Range



All are best Audios

Mahagarib Logo ke liye

Mission Impossible Fallout (2018) Org BD 2.0 55 MB Hindi [very very High Quality aac release]


Format                      : AAC
Format/Info                 : Advanced Audio Codec
Duration                    : 2 h 27 min
Bit rate mode               : Variable
Bit rate                    : 51.8 kb/s
Channel(s)                  : 2 channels
Stream size                 : 54.6 MiB (98%)



Mission Impossible Fallout (2018) Org BD 2.0 60 MB Hindi [very very High Quality aac release]


Format                      : AAC
Duration                    : 2 h 27 min
Bit rate mode               : Variable
Bit rate                    : 57.0 kb/s
Channel(s)                  : 2 channels
Stream size                 : 60 MiB (98%)




Mission Impossible Fallout (2018) Org BD 2.0 70 MB Hindi  [very very High Quality aac release]

ID                          : 1
Format                      : AAC
Duration                    : 2 h 27 min
Bit rate mode               : Variable
Bit rate                    : 69.1 kb/s
Channel(s)                  : 2 channels
Stream size                 : 70~ MiB (98%)


Garibo ke liye

Mission Impossible Fallout (2018) Org BD 5.1 210 kbps Hindi [very very High Quality aac release]




Format                      : AAC
Duration                    : 2 h 27 min
Bit rate mode               : Variable
Bit rate                    : 205 kb/s
Channel(s)                  : 6 channels
Channel positions           : Front: L C R, Side: L R, LFE
Stream size                 : 216 MiB (100%)



Mission Impossible Fallout (2018) Org BD 5.1 326 kbps Hindi [very very High Quality aac release]

Format                      : AAC
Duration                    : 2 h 27 min
Bit rate mode               : Variable
Bit rate                    : 326 kb/s
Channel(s)                  : 6 channels
Channel positions           : Front: L C R, Side: L R, LFE
Stream size                 : 343 MiB (100%)



Note: All five is has best audio. Your ears can't differentiate sounds.
Credit : Hammer bro

Share this topic on FacebookShare this topic on GoogleShare this topic on MySpaceShare this topic on TwitterShare this topic on Yahoo

« Last Edit: December 01, 2018, 11:02:12 AM by RohitGupta »


Thanks given by:


December 01, 2018, 12:45:57 PM
Reply #1
  • Senior Member
  • ***
  • Thank You: 0
  • Reputation: 0
  • Activity:
    0.4%
  • Country: pk
  • Posts: 214
  • Topics: 0
  • Join Date: Jul 2017
  • ShareSpark Member

December 01, 2018, 09:21:15 PM
Reply #2
  • Hero Member
  • ***
  • Thank You: 0
  • Reputation: 4
  • Activity:
    6.6%
  • Posts: 372
  • Topics: 1
  • Join Date: Jul 2012
  • ShareSpark Member
@ RohitGupta bro,
ur Jurassic World-Fallen Kingdom Hindi audio was also amazing in just 270 MB.
Please keep uploading such Original Hindi audios

December 02, 2018, 12:17:57 AM
Reply #3
  • Semi Newbie
  • **
  • Topic Author
  • Thank You: 17
  • Reputation: 2
  • Activity:
    2.6%
  • Country: ru
  • Posts: 13
  • Topics: 6
  • Join Date: Jun 2018
  • ShareSpark Member
kya batau bhai is website ke admin log mera post hi delete kr dete h..
islye jyada post nhi krta main..
har post taiyar karne me 4 - 5 hours khap jate hain.
islye kabhi kabhi koi koi film ki kar deta hu encode.
wo jurassic world wali usse kam size me bhi bahut achhi aa skati thi . but fir bhi maine or extra HQ bitrate me dali thi


By the way..
thanks for appreciation .. your words made me happy

December 02, 2018, 12:20:34 AM
Reply #4
  • Semi Newbie
  • **
  • Topic Author
  • Thank You: 17
  • Reputation: 2
  • Activity:
    2.6%
  • Country: ru
  • Posts: 13
  • Topics: 6
  • Join Date: Jun 2018
  • ShareSpark Member

Tags:
 

Related Topics

  Subject / Started by Replies Last post
1 Replies
1346 Views
Last post February 05, 2018, 09:11:17 PM
by Vagabond
1 Replies
1566 Views
Last post August 04, 2018, 02:36:52 AM
by PKS
0 Replies
705 Views
Last post September 13, 2018, 08:06:22 AM
by тнє ωαll 81317
0 Replies
656 Views
Last post November 07, 2018, 12:46:01 PM
by im2good
7 Replies
601 Views
Last post November 26, 2018, 05:05:48 PM
by MayurSuccess




Back to top
Episode 2 | Watch movie | GẠO NẾP GẠO TẺ - Tập 90 - FULL | Phim Gia Đình Việt 2018