+ ShareSpark.net »  :::: Dubbed Zone (Dubbed English in Hindi) » English Movies Dubbed in Hindi » Animation Movies
|- The Mystical Laws 2012 x264 720p Esub BluRay Dual Audio English Hindi [Shahzaib Shah]


100% Bill Offer

The Mystical Laws 2012 x264 720p Esub BluRay Dual Audio English Hindi [Shahzaib Shah]

0 Members and 1 Guest are viewing this topic.

December 05, 2018, 12:18:34 PM
  • ***************
  • Team SSX
  • Legend Member
  • ***
  • Topic Author
  • Thank You: 1817
  • Reputation: 552
  • Activity:
    100%
  • Country: pk
  • Posts: 1902
  • Topics: 1189
  • Join Date: Mar 2015
  • =$ Success Never Ends $=
The Mystical Laws 2012 x264 720p Esub BluRay Dual Audio English Hindi [Shahzaib Shah]








Format : Matroska
Format version : Version 4 / Version 2
File size : 683 MiB
Duration : 1 h 59 min
Overall bit rate : 795 kb/s
Movie name : GOPISAHI

Video
Format : AVC
Format/Info : Advanced Video Codec
Codec ID : V_MPEG4/ISO/AVC
Duration : 1 h 59 min
Bit rate : 599 kb/s
Width : 1 280 pixels
Height : 544 pixels
Display aspect ratio : 2.35:1
Frame rate mode : Constant
Frame rate : 23.976 (24000/1001) FPS
Color space : YUV
Chroma subsampling : 4:2:0
Bit depth : 8 bits
Scan type : Progressive
Bits/(Pixel*Frame) : 0.036
Stream size : 514 MiB (75%)
Title : GOPISAHI
Writing library : x264 core 155 r2901 7d0ff22

Audio #1
Format : AAC
Duration : 1 h 59 min
Bit rate : 96.0 kb/s
Channel(s) : 2 channels
Channel positions : Front: L R
Sampling rate : 48.0 kHz
Frame rate : 46.875 FPS (1024 SPF)
Compression mode : Lossy
Delay relative to video : -21 ms
Stream size : 83.4 MiB (12%)
Title : GOPISAHI
Language : Hindi

Audio #2
Format : AAC
Duration : 1 h 59 min
Bit rate : 96.0 kb/s
Channel(s) : 2 channels
Channel positions : Front: L R
Sampling rate : 48.0 kHz
Frame rate : 46.875 FPS (1024 SPF)
Compression mode : Lossy
Delay relative to video : 31 ms
Stream size : 82.6 MiB (12%)
Title : GOPISAHI
Language : English

Text
Language : English




 :ss:











 :download:


















Share this topic on FacebookShare this topic on GoogleShare this topic on MySpaceShare this topic on TwitterShare this topic on Yahoo



Thanks given by:


Tags:
 

Related Topics





Back to top
Download | Robot 2 2018 Full Free Movie Download 1080p Bluray | L√Ęcher prise